Xion Audio Player

APE and FLAC CUE files

Feature Requests and Ideas

Postby Vampiro » October 12th, 2007, 1:29 am

Would be nice if Xion could read the cue files for ape and flac codecs.
Vampiro
Xion Supporter
 
Posts: 3
Joined: October 12th, 2007, 1:24 am

Postby Cliff Cawley » October 12th, 2007, 12:09 pm

Vampiro Wrote:Would be nice if Xion could read the cue files for ape and flac codecs.


Have you got any specification information on these?

I had a quick look but didn't find anything. Details on the .cue file format itself will help :)

Cliff :)
Cliff Cawley
Creator of Xion
r2 Studios
http://www.r2.com.au
http://xion.r2.com.au
User avatar
Cliff Cawley
Creator of Xion
 
Posts: 1955
Joined: September 3rd, 2006, 11:33 am
Location: Brisbane, Australia

Postby Vampiro » October 16th, 2007, 4:17 am

If you want I could send some cue files so you can see the format.
Vampiro
Xion Supporter
 
Posts: 3
Joined: October 12th, 2007, 1:24 am

Postby Cliff Cawley » October 16th, 2007, 7:48 am

Vampiro Wrote:If you want I could send some cue files so you can see the format.


Sure, that would be great :)

Cliff :)
Cliff Cawley
Creator of Xion
r2 Studios
http://www.r2.com.au
http://xion.r2.com.au
User avatar
Cliff Cawley
Creator of Xion
 
Posts: 1955
Joined: September 3rd, 2006, 11:33 am
Location: Brisbane, Australia

Postby Vampiro » October 16th, 2007, 9:05 am

What email should I use? And you can open or edit the cue files with notepad...
Vampiro
Xion Supporter
 
Posts: 3
Joined: October 12th, 2007, 1:24 am

Postby SledgeDG » November 16th, 2009, 1:07 pm

Are you guys sure that there is a special cue format for ape/flac files?
I believe that there is only 1 "standard" as written in wiki:
http://en.wikipedia.org/wiki/Cue_sheet_%28computing%29
s/th like this

-----------------------------------------snip--------------------------------------------------
TITLE "Live in Berlin, 1998"
PERFORMER "Faithless"
FILE "faithless - live in berlin.mp3" MP3
TRACK 01 AUDIO
TITLE "Reverence"
PERFORMER "Faithless"
INDEX 01 00:00:00
TRACK 02 AUDIO
TITLE "She's My Baby"
PERFORMER "Faithless"
INDEX 01 06:42:00
TRACK 03 AUDIO
TITLE "Take The Long Way Home"
PERFORMER "Faithless"
INDEX 01 10:54:00
TRACK 04 AUDIO
TITLE "Insomnia"
PERFORMER "Faithless"
INDEX 01 17:04:00
TRACK 05 AUDIO
TITLE "Bring The Family Back"
PERFORMER "Faithless"
INDEX 01 25:44:00
------------------------------------------snap--------------------------------------------

Probably you'll have to substitute the MP3 at the end of the "File"-Line with APE or FLAC
but I have no access to any flac or ape file atm to verify that myself. I just know that my wav-cues have WAV at that position.

-DG
SledgeDG
Xion Supporter
 
Posts: 13
Joined: February 14th, 2008, 1:12 am
Location: Massachusetts

Return to Feature Requests

Who is online

Users browsing this forum: No registered users and 1 guest